<?xml version="1.0" standalone="no"?>
<!DOCTYPE svg PUBLIC "-//W3C//DTD SVG 1.1//EN" "http://www.w3.org/Graphics/SVG/1.1/DTD/svg11.dtd" >
<svg xmlns="http://www.w3.org/2000/svg">
<metadata>Generated by IcoMoon</metadata>
<defs>
<font id="icomoon" horiz-adv-x="1024">
<font-face units-per-em="1024" ascent="960" descent="-64" />
<missing-glyph horiz-adv-x="1024" />
<glyph unicode="&#x20;" horiz-adv-x="512" d="" />
<glyph unicode="&#xe900;" glyph-name="adv" d="M155.022 648.992l129.124-223.648c0.994-2.022 2.123-3.978 3.383-5.862l42.656-73.882h-214.881c-8.424 32.727-12.904 67.041-12.904 102.4 0 73.039 19.118 141.614 52.622 200.992zM222.191 737.452l107.935-186.949 177.288 307.071c-111.378-1.222-212.088-46.899-285.222-120.123zM617.718 843.827l-110.29-191.027h91.494c0.625 0.011 1.244 0.011 1.869 0h266.010c-53.745 92.91-142.935 162.75-249.083 191.027zM908.698 550.4h-220.114l177.792-307.937c35.113 60.411 55.224 130.627 55.224 205.537 0 35.359-4.48 69.671-12.902 102.4zM901.77 115.988c-0.727-0.911-1.49-1.802-2.284-2.668-93.885-108.6-232.663-177.321-387.487-177.321-31.967 0-63.249 2.929-93.594 8.535-0.566 0.097-1.132 0.2-1.697 0.317-177.843 33.475-323.226 158.904-384.873 325.023-2.586 4.726-4.447 9.912-5.434 15.396-17.124 51.123-26.402 105.841-26.402 162.729 0 282.77 229.23 512 512 512 282.767 0 512-229.23 512-512 0-126.684-46.008-242.621-122.23-332.012zM798.479 155.254l-109.952 190.449-177.423-307.302c0.298 0 0.598 0 0.896 0 111.514 0 212.623 44.564 286.479 116.854zM401.559 53.463l109.545 189.737h-91.276c-0.61-0.010-1.219-0.010-1.827 0h-260.803c52.946-91.53 140.293-160.666 244.361-189.737zM448.426 345.6h121.798l59.182 102.503-59.064 102.297h-122.035l-59.061-102.297 59.181-102.503z" />
<glyph unicode="&#xe901;" glyph-name="clips" horiz-adv-x="1138" d="M236.741 960h664.294c29.992 0.001 55.865 0.002 77.17-1.739 22.494-1.838 44.863-5.895 66.389-16.862 32.114-16.362 58.22-42.471 74.581-74.584 10.968-21.526 15.024-43.895 16.862-66.386 1.741-21.309 1.741-47.18 1.741-77.168v-550.523c0-29.986 0-55.859-1.741-77.164-1.838-22.494-5.894-44.863-16.862-66.389-16.361-32.114-42.468-58.22-74.581-74.581-21.527-10.968-43.895-15.024-66.389-16.862-21.305-1.741-47.178-1.741-77.164-1.741h-664.301c-29.988 0-55.859 0-77.168 1.741-22.49 1.838-44.86 5.894-66.386 16.862-32.113 16.361-58.222 42.468-74.584 74.581-10.968 21.527-15.025 43.895-16.862 66.389-1.741 21.305-1.74 47.178-1.739 77.17v550.516c-0.001 29.989-0.002 55.86 1.739 77.169 1.838 22.49 5.895 44.86 16.862 66.386 16.362 32.113 42.471 58.222 74.584 74.584 21.526 10.968 43.895 15.025 66.386 16.862 21.309 1.741 47.18 1.74 77.169 1.739zM113.778 618.667v-113.778h113.778v113.778h-113.778zM227.556 732.444h-113.774c0.026 26.459 0.199 44.545 1.357 58.718 1.262 15.455 3.406 21.184 4.84 23.997 5.454 10.704 14.157 19.407 24.861 24.861 2.813 1.434 8.542 3.577 23.997 4.84 14.173 1.158 32.259 1.332 58.718 1.357v-113.774zM341.333 504.889h455.111v341.333h-455.111v-341.333zM910.222 846.218v-113.774h113.772c-0.023 26.459-0.199 44.545-1.354 58.718-1.263 15.455-3.408 21.184-4.841 23.997-5.456 10.704-14.154 19.407-24.86 24.861-2.816 1.434-8.545 3.577-23.996 4.84-14.177 1.158-32.262 1.332-58.721 1.357zM1024 618.667h-113.778v-113.778h113.778v113.778zM1024 391.111h-113.778v-113.778h113.778v113.778zM1023.994 163.556h-113.772v-113.772c26.459 0.023 44.544 0.199 58.721 1.354 15.451 1.263 21.18 3.408 23.996 4.841 10.706 5.456 19.405 14.154 24.86 24.86 1.434 2.816 3.578 8.545 4.841 23.996 1.155 14.177 1.331 32.262 1.354 58.721zM796.444 49.778v341.333h-455.111v-341.333h455.111zM227.556 49.783v113.772h-113.774c0.026-26.459 0.199-44.544 1.357-58.721 1.262-15.451 3.406-21.18 4.84-23.996 5.454-10.706 14.157-19.405 24.861-24.86 2.813-1.434 8.542-3.578 23.997-4.841 14.173-1.155 32.259-1.331 58.718-1.354zM113.778 277.333h113.778v113.778h-113.778v-113.778z" />
<glyph unicode="&#xe902;" glyph-name="interview" horiz-adv-x="973" d="M409.601 857.6c-84.831 0-153.6-68.769-153.6-153.6s68.769-153.6 153.6-153.6c84.831 0 153.599 68.769 153.599 153.6s-68.768 153.6-153.599 153.6zM153.601 704c0 141.385 114.615 256 256 256 141.383 0 255.999-114.615 255.999-256s-114.616-256-255.999-256c-141.385 0-256 114.615-256 256zM710.799 381.804c48.271 48.271 126.536 48.271 174.807 0s48.271-126.536 0-174.807l-212.864-212.864c-0.44-0.435-0.891-0.891-1.352-1.352-5.074-5.094-11.464-11.51-19.057-16.804-6.589-4.598-13.701-8.407-21.181-11.341-8.617-3.379-17.5-5.135-24.556-6.533-0.64-0.128-1.265-0.251-1.879-0.374l-103.676-20.736c-16.786-3.359-34.14 1.9-46.245 14.003s-17.359 29.46-14.002 46.244l20.735 103.68c0.122 0.609 0.246 1.234 0.373 1.879 1.396 7.050 3.154 15.933 6.533 24.55 2.935 7.48 6.741 14.592 11.339 21.187 5.294 7.588 11.71 13.978 16.804 19.052 0.463 0.466 0.916 0.916 1.356 1.357l212.864 212.859zM813.199 309.396c-8.284 8.284-21.714 8.284-29.993 0l-212.864-212.864c-3.497-3.492-5.212-5.222-6.42-6.518-0.031-0.031-0.061-0.061-0.087-0.092-0.010-0.041-0.020-0.082-0.031-0.123-0.41-1.725-0.891-4.111-1.864-8.96l-5.673-28.37 28.37 5.673c4.849 0.968 7.235 1.454 8.96 1.859 0.046 0.010 0.087 0.020 0.123 0.031 0.031 0.031 0.061 0.056 0.092 0.087 1.3 1.208 3.026 2.929 6.523 6.426l212.864 212.859c8.279 8.284 8.279 21.709 0 29.993zM211.422 294.405c-3.207 0.241-5.115 0.189-17.284-0.737-3.343-0.251-5.712-0.568-7.579-0.906-42.023-7.608-74.913-40.494-82.521-82.519-1.431-7.91-1.638-18.488-1.638-53.268v-87.854c0-15.181 0.040-23.491 0.528-29.46 0.019-0.236 0.039-0.461 0.058-0.671 0.212-0.020 0.438-0.041 0.675-0.061 5.969-0.486 14.277-0.527 29.459-0.527h143.359c28.277 0 51.2-22.922 51.2-51.2s-22.923-51.2-51.2-51.2h-144.994c-12.922 0-25.506-0.005-36.163 0.865-11.704 0.957-25.514 3.215-39.412 10.296-19.268 9.815-34.933 25.482-44.75 44.749-7.081 13.896-9.337 27.709-10.293 39.414-0.871 10.655-0.869 23.24-0.868 36.163v89.487c0 1.628-0.001 3.236-0.001 4.818-0.010 27.848-0.018 48.492 3.277 66.693 15.215 84.045 80.994 149.821 165.041 165.038 6.010 1.091 11.955 1.787 18.039 2.248 0.519 0.041 1.036 0.082 1.55 0.123 10.25 0.783 19.522 1.495 31.122 0.63 11.415-0.85 19.271-2.237 30.287-5.345 11.291-3.185 27.842-10.691 49.256-20.403 1.808-0.824 3.651-1.659 5.528-2.509 32.104-14.541 67.784-22.666 105.5-22.666 28.277 0 51.199-22.922 51.199-51.2s-22.923-51.2-51.199-51.2c-52.576 0-102.638 11.351-147.754 31.79-13.556 6.144-23.102 10.465-30.21 13.537-3.511 1.516-6.050 2.565-7.909 3.282-1.576 0.614-2.249 0.824-2.285 0.84-0.009 0 0.017-0.005 0.074-0.026-2.919 0.824-4.185 1.091-4.988 1.234-0.803 0.138-2.083 0.323-5.108 0.548z" />
<glyph unicode="&#xe903;" glyph-name="report" horiz-adv-x="745" d="M186.182 773.818v-325.818c0-102.824 83.356-186.182 186.182-186.182 102.824 0 186.182 83.358 186.182 186.182v325.818c0 102.825-83.358 186.182-186.182 186.182s-186.182-83.356-186.182-186.182zM465.455 587.636h-46.545c-25.706 0-46.545-20.839-46.545-46.545s20.839-46.545 46.545-46.545h46.545v-46.545c0-51.414-41.678-93.091-93.091-93.091s-93.091 41.677-93.091 93.091v325.818c0 51.413 41.678 93.091 93.091 93.091s93.091-41.678 93.091-93.091h-46.545c-25.706 0-46.545-20.839-46.545-46.545s20.839-46.545 46.545-46.545h46.545v-93.091zM46.545 587.636c25.706 0 46.545-20.839 46.545-46.545v-93.091c0-154.238 125.035-279.273 279.273-279.273s279.273 125.035 279.273 279.273v93.091c0 25.706 20.838 46.545 46.545 46.545s46.545-20.839 46.545-46.545v-93.091c0-189.887-142.136-346.577-325.818-369.482v-49.427h139.636c25.707 0 46.545-20.838 46.545-46.545s-20.838-46.545-46.545-46.545h-372.364c-25.706 0-46.545 20.838-46.545 46.545s20.839 46.545 46.545 46.545h139.636v49.427c-183.683 22.905-325.818 179.596-325.818 369.482v93.091c0 25.706 20.839 46.545 46.545 46.545z" />
<glyph unicode="&#xe904;" glyph-name="colo" horiz-adv-x="1280" d="M266.333 960h747.331c33.741 0.001 62.848 0.002 86.816-1.957 25.306-2.067 50.47-6.631 74.688-18.97 36.128-18.408 65.498-47.78 83.904-83.907 12.339-24.216 16.902-49.382 18.97-74.684 1.958-23.972 1.958-53.077 1.958-86.814v-491.338c0-33.734 0-62.842-1.958-86.81-2.067-25.306-6.63-50.47-18.97-74.688-18.406-36.128-47.776-65.498-83.904-83.904-24.218-12.339-49.382-16.902-74.688-18.97-23.968-1.958-53.075-1.958-86.816-1.958h-747.329c-33.738 0-62.844 0-86.817 1.958-25.302 2.067-50.468 6.63-74.684 18.97-36.127 18.406-65.499 47.776-83.907 83.904-12.339 24.218-16.903 49.382-18.97 74.688-1.959 23.968-1.958 53.075-1.957 86.816v491.331c-0.001 33.738-0.002 62.842 1.957 86.815 2.067 25.302 6.631 50.468 18.97 74.684 18.408 36.127 47.78 65.499 83.907 83.907 24.216 12.339 49.382 16.903 74.684 18.97 23.973 1.959 53.078 1.958 86.815 1.957zM512 64h256v768h-256v-768zM384 832h-115.2c-36.899 0-60.725-0.050-78.858-1.532-17.387-1.42-23.832-3.832-26.997-5.444-12.042-6.136-21.833-15.926-27.969-27.969-1.613-3.165-4.024-9.61-5.444-26.997-1.482-18.133-1.532-41.959-1.532-78.858v-486.4c0-36.902 0.050-60.723 1.532-78.861 1.42-17.382 3.832-23.827 5.444-26.995 6.136-12.045 15.926-21.83 27.969-27.968 3.165-1.613 9.61-4.026 26.997-5.446 18.133-1.478 41.959-1.53 78.858-1.53h115.2v768zM896 832v-768h115.2c36.902 0 60.723 0.051 78.861 1.53 17.382 1.421 23.827 3.834 26.995 5.446 12.045 6.138 21.83 15.923 27.968 27.968 1.613 3.168 4.026 9.613 5.446 26.995 1.478 18.138 1.53 41.958 1.53 78.861v486.4c0 36.899-0.051 60.724-1.53 78.858-1.421 17.387-3.834 23.832-5.446 26.997-6.138 12.042-15.923 21.833-27.968 27.969-3.168 1.613-9.613 4.024-26.995 5.444-18.138 1.482-41.958 1.532-78.861 1.532h-115.2z" />
<glyph unicode="&#xe905;" glyph-name="volume-max" d="M543.421 889.539c15.77-17.476 17.925-39.563 18.77-49.391 1.014-11.846 1.009-26.801 1.009-42.513v-699.269c0-15.713 0.005-30.669-1.009-42.511-0.845-9.83-3-31.918-18.77-49.393-17.126-18.985-42.579-28.201-67.891-24.581-23.301 3.333-39.099 18.918-46.037 25.928-8.364 8.453-17.936 19.942-27.994 32.015l-135.706 162.847c-19.832 23.798-24.050 28.216-28.289 31.201-4.903 3.451-10.375 6.011-16.165 7.572-5.005 1.347-11.101 1.756-42.079 1.756h-47.774c-12.922 0-25.507-0.005-36.165 0.865-11.704 0.957-25.514 3.215-39.412 10.296-19.268 9.815-34.933 25.482-44.75 44.749-7.081 13.896-9.337 27.709-10.293 39.414-0.871 10.655-0.869 23.24-0.868 36.163v144.993c0 0.545 0 1.090 0 1.633-0.002 12.922-0.003 25.506 0.868 36.164 0.956 11.704 3.213 25.514 10.293 39.411 9.817 19.268 25.483 34.933 44.75 44.751 13.897 7.080 27.707 9.337 39.412 10.293 10.657 0.87 23.242 0.869 36.164 0.868 0.544-0.001 1.088-0.001 1.633-0.001h46.141c30.978 0 37.073 0.412 42.079 1.758 5.79 1.558 11.261 4.121 16.165 7.571 4.238 2.983 8.457 7.402 28.289 31.2l135.707 162.849c10.058 12.071 19.63 23.561 27.993 32.012 6.939 7.011 22.736 22.597 46.038 25.928 25.311 3.619 50.764-5.596 67.89-24.58zM460.8 767.383l-116.34-139.608c-1.038-1.246-2.066-2.482-3.086-3.708-14.979-18.013-28.179-33.886-44.936-45.679-14.71-10.352-31.124-18.040-48.495-22.713-19.787-5.324-40.432-5.302-63.859-5.278-1.595 0.002-3.203 0.003-4.824 0.003h-46.141c-15.182 0-23.49-0.039-29.459-0.527-0.238-0.019-0.463-0.039-0.675-0.059-0.019-0.212-0.039-0.437-0.058-0.675-0.488-5.969-0.527-14.277-0.527-29.459v-143.359c0-15.181 0.039-23.491 0.527-29.46 0.019-0.236 0.039-0.461 0.058-0.676 0.212-0.015 0.438-0.036 0.675-0.056 5.969-0.486 14.277-0.527 29.459-0.527h46.141c1.621 0 3.229 0 4.824 0.005 23.428 0.020 44.072 0.046 63.859-5.279 17.37-4.675 33.784-12.36 48.495-22.712 16.757-11.796 29.957-27.668 44.936-45.681 1.020-1.229 2.047-2.463 3.085-3.707l116.34-139.612v638.768zM781.051 825.612c18.857 21.070 51.226 22.863 72.294 4.005 104.668-93.678 170.655-229.975 170.655-381.617 0-151.644-65.987-287.939-170.655-381.619-21.069-18.857-53.437-17.065-72.294 4.009-18.862 21.069-17.065 53.437 4.004 72.294 83.881 75.075 136.545 184.013 136.545 305.316 0 121.305-52.664 230.241-136.545 305.315-21.069 18.858-22.866 51.227-4.004 72.297zM686.070 642.537c22.61 16.983 54.702 12.421 71.685-10.188 38.569-51.348 61.445-115.251 61.445-184.349 0-69.1-22.876-133.002-61.445-184.351-16.983-22.61-49.075-27.172-71.685-10.189s-27.172 49.080-10.189 71.69c25.708 34.222 40.919 76.687 40.919 122.849s-15.212 88.626-40.919 122.85c-16.983 22.609-12.421 54.705 10.189 71.687z" />
<glyph unicode="&#xe906;" glyph-name="video2" horiz-adv-x="1463" d="M304.381 960h488.378c38.561 0.001 71.826 0.002 99.218-2.236 28.921-2.363 57.68-7.579 85.358-21.68 41.289-21.037 74.854-54.605 95.89-95.894 14.102-27.676 19.317-56.437 21.68-85.353 0.805-9.827 1.317-20.41 1.653-31.72l80.947 48.573c26.712 16.029 50.929 30.558 71.475 40.457 20.802 10.023 48.911 21.045 81.167 18.038 41.626-3.88 79.594-25.38 104.338-59.074 19.171-26.111 24.181-55.886 26.295-78.884 2.085-22.712 2.077-50.949 2.077-82.101v-324.251c0-31.152 0.007-59.388-2.077-82.098-2.114-23.003-7.124-52.773-26.295-78.885-24.744-33.697-62.713-55.194-104.338-59.077-32.256-3.006-60.365 8.016-81.167 18.037-20.546 9.904-44.756 24.43-71.468 40.455l-80.955 48.574c-0.336-11.308-0.848-21.892-1.653-31.715-2.363-28.921-7.578-57.68-21.68-85.358-21.036-41.289-54.601-74.854-95.89-95.89-27.677-14.102-56.437-19.317-85.358-21.68-27.392-2.238-60.657-2.238-99.218-2.238h-488.376c-38.558 0-71.821 0-99.219 2.238-28.916 2.363-57.678 7.578-85.353 21.68-41.288 21.036-74.856 54.601-95.894 95.89-14.102 27.677-19.318 56.437-21.68 85.358-2.238 27.392-2.237 60.657-2.236 99.215v415.239c-0.001 38.557-0.002 71.82 2.236 99.218 2.363 28.916 7.579 57.678 21.68 85.353 21.037 41.288 54.605 74.856 95.894 95.894 27.676 14.102 56.437 19.318 85.353 21.68 27.398 2.238 60.66 2.237 99.218 2.236zM950.857 303.054c-0.015-0.848-0.015-1.695 0-2.54v-57.313c0-42.174-0.059-69.398-1.748-90.127-1.624-19.866-4.381-27.231-6.224-30.852-7.014-13.765-18.198-24.949-31.963-31.963-3.621-1.843-10.986-4.601-30.852-6.224-20.729-1.69-47.952-1.748-90.127-1.748h-482.743c-42.171 0-69.4 0.059-90.124 1.748-19.871 1.624-27.237 4.381-30.854 6.224-13.763 7.014-24.952 18.198-31.964 31.963-1.843 3.621-4.599 10.986-6.222 30.852-1.693 20.729-1.75 47.952-1.75 90.127v409.6c0 42.171 0.057 69.4 1.75 90.124 1.623 19.871 4.379 27.237 6.222 30.854 7.012 13.763 18.202 24.952 31.964 31.964 3.617 1.843 10.983 4.599 30.854 6.222 20.724 1.693 47.953 1.75 90.124 1.75h482.743c42.174 0 69.398-0.057 90.127-1.75 19.866-1.623 27.231-4.379 30.852-6.222 13.765-7.012 24.949-18.202 31.963-31.964 1.843-3.617 4.601-10.983 6.224-30.854 1.69-20.724 1.748-47.953 1.748-90.124v-57.313c-0.015-0.846-0.015-1.694 0-2.542v-289.891zM1097.143 343.127l152.964-91.778c30.245-18.147 48.618-29.082 62.362-35.702 0.848-0.41 1.638-0.783 2.37-1.119 0.095 0.805 0.183 1.675 0.263 2.611 1.397 15.191 1.47 36.569 1.47 71.841v318.039c0 35.272-0.073 56.651-1.47 71.843-0.080 0.936-0.168 1.806-0.263 2.611-0.731-0.338-1.521-0.709-2.37-1.118-13.744-6.622-32.117-17.557-62.362-35.705l-152.964-91.778v-209.746z" />
<glyph unicode="&#xe907;" glyph-name="video" horiz-adv-x="1138" d="M113.778 903.111c0 31.419 25.47 56.889 56.889 56.889h796.444c31.42 0 56.889-25.47 56.889-56.889s-25.469-56.889-56.889-56.889h-796.444c-31.419 0-56.889 25.47-56.889 56.889zM56.889 732.444c0 31.419 25.47 56.889 56.889 56.889h910.222c31.42 0 56.889-25.47 56.889-56.889s-25.469-56.889-56.889-56.889h-910.222c-31.419 0-56.889 25.47-56.889 56.889zM205.579 618.667h726.62c24.274 0.001 45.943 0.003 63.841-1.515 19.024-1.614 39.35-5.271 58.886-15.973 28.041-15.362 50.091-39.725 62.583-69.158 8.71-20.506 10.325-41.095 10.035-60.185-0.267-17.957-2.423-39.52-4.841-63.672l-25.907-259.052c-2.719-27.21-5.080-50.813-8.567-70.235-3.698-20.599-9.341-40.858-20.901-60.103-17.368-28.905-42.906-52.019-73.392-66.418-20.298-9.591-41.023-13.187-61.884-14.82-19.672-1.536-43.395-1.536-70.736-1.536h-584.851c-27.341 0-51.061 0-70.733 1.536-20.866 1.633-41.587 5.228-61.885 14.82-30.489 14.399-56.028 37.513-73.394 66.418-11.561 19.246-17.202 39.504-20.901 60.103-3.487 19.422-5.847 43.025-8.566 70.229l-25.906 259.059c-2.417 24.152-4.574 45.715-4.844 63.671-0.287 19.090 1.329 39.679 10.034 60.185 12.495 29.433 34.543 53.796 62.587 69.158 19.537 10.703 39.864 14.359 58.888 15.973 17.894 1.518 39.565 1.516 63.836 1.515zM137.516 501.391c-5.609-3.073-10.018-7.945-12.517-13.831l-0.026-0.071-0.096-0.319c-0.086-0.324-0.233-0.951-0.382-1.986-0.314-2.183-0.585-5.765-0.497-11.635 0.189-12.543 1.811-29.24 4.51-56.23l25.484-254.839c2.984-29.844 4.938-48.976 7.545-63.494 2.483-13.824 4.861-18.984 6.444-21.618 5.789-9.637 14.302-17.34 24.465-22.141 2.779-1.314 8.147-3.163 22.151-4.261 14.706-1.149 33.939-1.189 63.929-1.189h580.723c29.992 0 49.226 0.040 63.932 1.189 14.006 1.098 19.371 2.947 22.153 4.261 10.16 4.801 18.677 12.504 24.462 22.141 1.587 2.634 3.965 7.794 6.446 21.618 2.606 14.518 4.562 33.65 7.543 63.494l25.486 254.839c2.697 26.989 4.318 43.686 4.511 56.229 0.085 5.872-0.182 9.453-0.501 11.636-0.148 1.035-0.296 1.662-0.381 1.986l-0.097 0.319-0.017 0.055c-2.497 5.887-6.918 10.775-12.527 13.847l-0.068 0.033-0.307 0.126c-0.313 0.119-0.922 0.327-1.934 0.578-2.145 0.53-5.678 1.156-11.531 1.652-12.498 1.060-29.275 1.108-56.4 1.108h-722.262c-27.123 0-43.899-0.048-56.399-1.108-5.851-0.496-9.387-1.122-11.529-1.652-1.015-0.251-1.625-0.459-1.938-0.578l-0.307-0.126-0.068-0.033zM479.766 310.454c-20.714-13.813-24.655-26.641-24.655-33.121s3.941-19.308 24.655-33.121c20.316-13.54 51.66-23.768 89.123-23.768 37.461 0 68.807 10.229 89.122 23.768 20.713 13.813 24.656 26.641 24.656 33.121s-3.942 19.308-24.656 33.121c-20.315 13.54-51.661 23.768-89.122 23.768-37.463 0-68.807-10.229-89.123-23.768zM416.654 405.121c41.453 27.635 95.442 42.879 152.235 42.879s110.785-15.244 152.235-42.879c41.057-27.373 75.321-71.427 75.321-127.787s-34.264-100.415-75.321-127.79c-41.449-27.631-95.442-42.877-152.235-42.877s-110.782 15.246-152.235 42.877c-41.056 27.375-75.32 71.43-75.32 127.79s34.264 100.415 75.32 127.787z" />
<glyph unicode="&#xe908;" glyph-name="visual" d="M870.4 960c28.278 0 51.2-22.923 51.2-51.2v-51.2h51.2c28.278 0 51.2-22.923 51.2-51.2s-22.922-51.2-51.2-51.2h-51.2v-51.2c0-28.277-22.922-51.2-51.2-51.2s-51.2 22.923-51.2 51.2v51.2h-51.2c-28.278 0-51.2 22.923-51.2 51.2s22.922 51.2 51.2 51.2h51.2v51.2c0 28.277 22.922 51.2 51.2 51.2zM409.6 857.6c21.026 0 39.915-12.855 47.629-32.415l75.266-190.833c10.557-26.777 12.969-31.907 15.79-35.85 3.267-4.558 7.255-8.55 11.817-11.814 3.942-2.824 9.073-5.233 35.85-15.794l190.833-75.264c19.558-7.714 32.415-26.603 32.415-47.629 0-21.028-12.856-39.916-32.415-47.631l-190.833-75.264c-26.778-10.557-31.908-12.969-35.85-15.79-4.562-3.267-8.55-7.255-11.817-11.817-2.821-3.942-5.233-9.073-15.79-35.85l-75.266-190.833c-7.714-19.558-26.603-32.415-47.629-32.415s-39.915 12.856-47.629 32.415l-75.264 190.833c-10.561 26.778-12.969 31.908-15.794 35.85-3.265 4.562-7.256 8.55-11.814 11.817-3.943 2.821-9.074 5.233-35.85 15.79l-190.833 75.264c-19.56 7.716-32.415 26.604-32.415 47.631s12.855 39.915 32.415 47.629l190.833 75.264c26.777 10.561 31.907 12.969 35.85 15.794 4.558 3.265 8.55 7.256 11.814 11.814 2.824 3.943 5.233 9.073 15.794 35.85l75.264 190.833c7.714 19.56 26.603 32.415 47.629 32.415zM409.6 666.849l-27.634-70.067c-0.551-1.399-1.097-2.786-1.638-4.162-7.978-20.288-15.012-38.172-26.163-53.742-9.794-13.675-21.767-25.649-35.442-35.442-15.57-11.151-33.454-18.185-53.742-26.163-1.376-0.541-2.764-1.087-4.163-1.638l-70.067-27.634 70.067-27.633c1.398-0.553 2.786-1.101 4.162-1.638 20.288-7.982 38.172-15.012 53.743-26.163 13.675-9.795 25.649-21.77 35.442-35.446 11.151-15.57 18.185-33.454 26.163-53.74 0.541-1.377 1.087-2.765 1.638-4.163l27.634-70.067 27.634 70.067c0.551 1.398 1.097 2.785 1.638 4.163 7.978 20.285 15.012 38.17 26.163 53.74 9.794 13.676 21.768 25.651 35.443 35.446 15.572 11.151 33.456 18.181 53.742 26.163 1.377 0.538 2.765 1.085 4.163 1.638l70.067 27.633-70.067 27.634c-1.398 0.551-2.785 1.097-4.163 1.638-20.285 7.979-38.17 15.012-53.742 26.164-13.675 9.794-25.649 21.767-35.443 35.442-11.151 15.57-18.184 33.454-26.163 53.742-0.542 1.376-1.087 2.763-1.638 4.162l-27.634 70.067zM870.4 243.2c28.278 0 51.2-22.922 51.2-51.2v-51.2h51.2c28.278 0 51.2-22.922 51.2-51.2s-22.922-51.2-51.2-51.2h-51.2v-51.2c0-28.278-22.922-51.2-51.2-51.2s-51.2 22.922-51.2 51.2v51.2h-51.2c-28.278 0-51.2 22.922-51.2 51.2s22.922 51.2 51.2 51.2h51.2v51.2c0 28.278 22.922 51.2 51.2 51.2z" />
<glyph unicode="&#xe909;" glyph-name="d" horiz-adv-x="1081" d="M512 960c31.419 0 56.889-25.47 56.889-56.889v-540.444l432.356-324.267c25.134-18.853 30.231-54.511 11.378-79.644s-54.511-30.231-79.644-11.378l-420.978 315.733-420.978-315.733c-25.135-18.853-60.793-13.756-79.645 11.378s-13.757 60.791 11.378 79.644l432.356 324.267v540.444c0 31.419 25.47 56.889 56.889 56.889zM56.889 846.222c0 31.419 25.47 56.889 56.889 56.889h0.569c31.419 0 56.889-25.47 56.889-56.889s-25.47-56.889-56.889-56.889h-0.569c-31.419 0-56.889 25.47-56.889 56.889zM796.444 846.222c0 31.419 25.469 56.889 56.889 56.889h0.569c31.42 0 56.889-25.47 56.889-56.889s-25.469-56.889-56.889-56.889h-0.569c-31.42 0-56.889 25.47-56.889 56.889zM227.556 618.667c0 31.419 25.47 56.889 56.889 56.889h0.569c31.419 0 56.889-25.47 56.889-56.889s-25.47-56.889-56.889-56.889h-0.569c-31.419 0-56.889 25.47-56.889 56.889zM910.222 618.667c0 31.419 25.469 56.889 56.889 56.889h0.569c31.42 0 56.889-25.47 56.889-56.889s-25.469-56.889-56.889-56.889h-0.569c-31.42 0-56.889 25.47-56.889 56.889zM0 391.111c0 31.419 25.47 56.889 56.889 56.889h0.569c31.419 0 56.889-25.47 56.889-56.889s-25.47-56.889-56.889-56.889h-0.569c-31.419 0-56.889 25.469-56.889 56.889zM739.556 391.111c0 31.419 25.469 56.889 56.889 56.889h0.569c31.42 0 56.889-25.47 56.889-56.889s-25.469-56.889-56.889-56.889h-0.569c-31.42 0-56.889 25.469-56.889 56.889zM455.111-7.111c0 31.42 25.47 56.889 56.889 56.889h0.569c31.419 0 56.889-25.469 56.889-56.889s-25.47-56.889-56.889-56.889h-0.569c-31.419 0-56.889 25.469-56.889 56.889z" />
<glyph unicode="&#xe90a;" glyph-name="d1" horiz-adv-x="1075" d="M213.067 960h597.864c26.993 0.001 50.278 0.002 69.453-1.565 20.244-1.654 40.376-5.305 59.75-15.176 28.902-14.726 52.398-38.224 67.123-67.126 9.871-19.373 13.522-39.506 15.176-59.747 1.567-19.178 1.567-42.462 1.567-69.451v-350.134c0-28.278-22.922-51.2-51.2-51.2s-51.2 22.922-51.2 51.2v348.16c0 29.519-0.041 48.58-1.224 63.087-1.137 13.91-3.067 19.066-4.357 21.598-4.91 9.634-12.739 17.466-22.374 22.375-2.534 1.29-7.69 3.219-21.596 4.356-14.51 1.185-33.567 1.225-63.089 1.225h-593.92c-29.519 0-48.58-0.040-63.087-1.225-13.91-1.136-19.066-3.065-21.598-4.356-9.634-4.909-17.466-12.741-22.375-22.375-1.29-2.532-3.219-7.688-4.356-21.598-1.185-14.506-1.225-33.567-1.225-63.087v-491.52c0-29.522 0.040-48.579 1.225-63.089 1.136-13.906 3.065-19.062 4.356-21.596 4.909-9.636 12.741-17.464 22.375-22.374 2.532-1.29 7.688-3.22 21.598-4.357 14.506-1.183 33.567-1.224 63.087-1.224h296.96c28.278 0 51.2-22.922 51.2-51.2s-22.922-51.2-51.2-51.2h-298.934c-26.99 0-50.273 0-69.451 1.567-20.241 1.654-40.374 5.304-59.747 15.176-28.902 14.725-52.4 38.221-67.126 67.123-9.871 19.374-13.522 39.506-15.176 59.75-1.567 19.174-1.566 42.46-1.565 69.453v495.464c-0.001 26.99-0.002 50.274 1.565 69.452 1.654 20.241 5.305 40.374 15.176 59.747 14.726 28.902 38.224 52.4 67.126 67.126 19.373 9.871 39.506 13.522 59.747 15.176 19.178 1.567 42.462 1.566 69.452 1.565zM256 704c28.277 0 51.2-22.923 51.2-51.2v-307.2c0-28.278-22.923-51.2-51.2-51.2s-51.2 22.922-51.2 51.2v307.2c0 28.277 22.923 51.2 51.2 51.2zM563.354 396.78c0.215-10.767 0.671-14.438 1.51-17.659 1.475-5.642 3.901-10.988 7.173-15.811 2.831-4.173 7.025-8.356 29.629-28.134l302.781-264.934c8.34-7.296 20.905-6.876 28.744 0.957 8.607 8.607 8.141 22.702-1.024 30.72l-305.152 267.013c-18.801 16.451-22.671 19.466-26.404 21.524-4.306 2.365-8.929 4.106-13.732 5.156-3.497 0.768-7.511 1.085-23.526 1.167zM556.708 499.202c18.964 0.016 35.697 0.030 52.086-3.56 14.403-3.155 28.278-8.369 41.201-15.48 14.7-8.091 27.279-19.117 41.539-31.619 0.963-0.845 1.935-1.695 2.913-2.55l305.152-267.008c53.74-47.022 56.494-129.7 6.001-180.193-45.957-45.957-119.67-48.41-168.581-5.617l-302.781 264.934c-1.183 1.034-2.355 2.058-3.517 3.077-17.126 14.95-32.216 28.129-43.404 44.611-9.823 14.469-17.103 30.515-21.525 47.437-5.036 19.272-5.016 39.306-4.993 62.039 0.002 1.546 0.003 3.103 0.003 4.675v28.052c0 28.277 22.923 51.2 51.2 51.2h40.837c1.3 0 2.591 0.001 3.871 0.002z" />
<glyph unicode="&#xe90b;" glyph-name="refactor" d="M512 857.6c7.654 0 15.258-0.209 22.799-0.623 28.237-1.546 52.378 20.089 53.924 48.324s-20.091 52.377-48.323 53.923c-9.405 0.515-18.877 0.776-28.401 0.776-282.77 0-512-229.23-512-512 0-282.767 229.23-512 512-512 28.278 0 51.2 22.922 51.2 51.2s-22.922 51.2-51.2 51.2c-226.216 0-409.6 183.383-409.6 409.6s183.384 409.6 409.6 409.6zM752.84 914.846c59.981 59.984 157.235 59.985 217.221 0s59.986-157.239 0-217.223l-300.134-300.132c-1.142-1.142-2.268-2.273-3.384-3.384-35.768-35.779-58.255-58.276-84.209-76.396-22.999-16.056-47.805-29.358-73.905-39.629-29.453-11.597-60.637-17.884-110.228-27.884-1.546-0.312-3.109-0.63-4.691-0.947l-24.982-5.038c-16.303-3.292-33.188 1.541-45.28 12.964-12.092 11.418-17.884 27.996-15.532 44.462l2.429 17.009c0.252 1.766 0.502 3.512 0.748 5.238 7.878 55.188 12.83 89.887 24.256 122.711 10.122 29.083 23.95 56.739 41.143 82.286 19.406 28.837 44.193 53.618 83.616 93.032 1.232 1.232 2.48 2.48 3.742 3.741l289.191 289.19zM716.8 733.992l-180.746-180.744c-44.358-44.361-61.608-61.921-74.809-81.537-12.28-18.248-22.157-38.002-29.387-58.774-4.911-14.111-8.195-29.015-12.185-53.745 24.022 5.197 38.030 8.965 51.25 14.172 18.643 7.337 36.36 16.84 52.786 28.308 17.659 12.329 33.572 27.986 73.81 68.223l191.688 191.687-72.407 72.408zM861.614 733.992l-72.407 72.408 36.040 36.038c19.994 19.995 52.413 19.995 72.407 0s19.994-52.412 0-72.408l-36.040-36.038zM957.491 549.377c27.715 5.625 54.738-12.279 60.365-39.991 4.035-19.877 6.144-40.411 6.144-61.385 0-169.661-137.539-307.2-307.2-307.2-28.278 0-51.2 22.922-51.2 51.2s22.922 51.2 51.2 51.2c113.106 0 204.8 91.694 204.8 204.8 0 14.094-1.418 27.805-4.096 41.015-5.627 27.711 12.278 54.737 39.987 60.362z" />
<glyph unicode="&#xe90c;" glyph-name="pen" d="M897.644 842.404c-19.999 19.995-52.413 19.995-72.407 0l-61.64-61.638 72.407-72.408 61.64 61.639c19.994 19.995 19.994 52.413 0 72.408zM970.051 697.588c59.986 59.985 59.986 157.239 0 217.223s-157.24 59.984-217.226 0l-596.375-596.378c-1.262-1.26-2.509-2.509-3.742-3.743-39.423-39.414-64.209-64.195-83.616-93.030-17.192-25.549-31.020-53.202-41.143-82.284-11.426-32.829-16.379-67.528-24.256-122.711-0.246-1.725-0.496-3.471-0.748-5.238l-2.43-17.009c-2.352-16.466 3.44-33.044 15.532-44.467 12.092-11.418 28.977-16.251 45.28-12.964l29.672 5.985c49.591 10.004 80.777 16.292 110.23 27.884 26.101 10.276 50.905 23.578 73.903 39.634 25.953 18.12 48.444 40.617 84.212 76.39 1.116 1.116 2.244 2.248 3.386 3.389l607.321 607.318zM763.597 635.95l-72.407 72.408-462.333-462.331c-44.361-44.36-61.61-61.921-74.811-81.536-12.28-18.248-22.157-38.001-29.387-58.778-4.911-14.106-8.195-29.015-12.185-53.74 24.022 5.197 38.030 8.965 51.25 14.172 18.643 7.337 36.36 16.84 52.788 28.308 17.656 12.324 33.571 27.986 73.809 68.224l473.275 473.272zM512-12.8c0 28.278 22.922 51.2 51.2 51.2h409.6c28.278 0 51.2-22.922 51.2-51.2s-22.922-51.2-51.2-51.2h-409.6c-28.278 0-51.2 22.922-51.2 51.2z" />
<glyph unicode="&#xe90d;" glyph-name="smm" d="M487.135 953.557c15.463 8.591 34.265 8.591 49.727 0l460.8-256c16.256-9.030 26.337-26.163 26.337-44.757s-10.081-35.727-26.337-44.757l-103.757-57.643 103.757-57.643c16.256-9.030 26.337-26.163 26.337-44.757 0-18.596-10.081-35.727-26.337-44.759l-103.757-57.641 103.757-57.641c16.256-9.032 26.337-26.163 26.337-44.759s-10.081-35.727-26.337-44.759l-460.8-256c-15.462-8.586-34.264-8.586-49.727 0l-460.8 256c-16.254 9.032-26.335 26.163-26.335 44.759s10.081 35.727 26.335 44.759l103.757 57.641-103.757 57.641c-16.254 9.032-26.335 26.163-26.335 44.759 0 18.594 10.081 35.727 26.335 44.757l103.757 57.643-103.757 57.643c-16.254 9.030-26.335 26.163-26.335 44.757s10.081 35.727 26.335 44.757l460.8 256zM235.52 491.829l-78.893-43.829 355.373-197.427 355.374 197.427-78.894 43.829-251.617-139.788c-15.462-8.586-34.264-8.586-49.727 0l-251.615 139.788zM235.52 287.027l-78.893-43.827 355.373-197.427 355.374 197.427-78.894 43.827-251.617-139.786c-15.462-8.586-34.264-8.586-49.727 0l-251.615 139.786zM156.627 652.8l355.373-197.429 355.374 197.429-355.374 197.429-355.373-197.429z" />
<glyph unicode="&#xe90e;" glyph-name="pr" horiz-adv-x="2048" d="M550.029 943.62c30.627 4.663 61.746 5.134 92.5 1.401 29.131-3.536 57.172-11.959 94.268-23.101 1.94-0.583 3.906-1.173 5.897-1.771l281.306-84.392 281.31 84.392c1.988 0.597 3.951 1.187 5.897 1.77 37.094 11.143 65.135 19.566 94.268 23.102 30.754 3.733 61.875 3.261 92.501-1.401 29.005-4.417 56.781-13.685 93.525-25.946 1.92-0.641 3.866-1.291 5.837-1.949l3.157-1.053c62.507-20.832 114.005-38 154.88-55.211 42.351-17.836 80-38.361 111.744-69.090 58.889-57.020 95.3-133.33 102.562-214.981 3.917-44.004-3.831-86.187-16.614-130.325-12.339-42.595-31.403-93.43-54.537-155.116l-45.517-121.392c-1.408-3.747-2.79-7.465-4.173-11.151-19.678-52.72-36.966-99.013-68.386-134.665-27.486-31.189-62.157-55.219-101.009-70.007-44.425-16.896-93.841-16.828-150.11-16.742-3.934 0-7.902 0.009-11.904 0.009h-87.637c-1.357 0-2.705 0-4.045 0-20.079-0.009-37.803-0.026-55.62 2.475-15.684 2.193-31.13 5.837-46.14 10.889-17.058 5.743-32.905 13.67-50.859 22.665-1.195 0.597-2.398 1.203-3.618 1.809l-39.433 19.721c-93.978 46.985-126.404 62.336-158.874 68.429-31.198 5.854-63.215 5.854-94.413 0-32.461-6.093-64.887-21.444-158.868-68.429l-39.439-19.721c-1.218-0.606-2.425-1.212-3.622-1.809-17.952-8.994-33.799-16.922-50.851-22.665-15.010-5.052-30.457-8.695-46.141-10.889-17.818-2.5-35.54-2.483-55.618-2.475-1.339 0-2.688 0-4.049 0h-87.636c-4.001 0-7.968-0.009-11.901-0.009-56.273-0.085-105.691-0.154-150.108 16.742-38.856 14.788-73.527 38.818-101.014 70.007-31.421 35.652-48.707 81.954-68.389 134.668-1.376 3.685-2.763 7.401-4.168 11.148l-45.523 121.393c-23.133 61.685-42.196 112.519-54.534 155.114-12.784 44.139-20.525 86.321-16.611 130.325 7.263 81.651 43.669 157.961 102.562 214.981 31.738 30.729 69.396 51.255 111.746 69.090 40.869 17.211 92.374 34.379 154.873 55.211l3.16 1.053c1.973 0.657 3.919 1.307 5.84 1.948 36.742 12.261 64.515 21.53 93.526 25.946zM621.965 775.598c-15.377 1.866-30.937 1.631-46.25-0.701-12.772-1.945-25.997-6.052-71.083-21.081-66.444-22.148-111.67-37.286-145.762-51.643-33.297-14.024-49.159-24.624-59.273-34.416-29.446-28.51-47.648-66.665-51.28-107.491-1.248-14.022 0.493-33.020 10.545-67.723 10.291-35.532 26.982-80.207 51.574-145.786l44.353-118.275c26.408-70.42 32.928-83.973 40.797-92.902 9.163-10.397 20.72-18.406 33.672-23.334 11.124-4.233 26.103-5.579 101.312-5.579h87.636c26.319 0 31.464 0.189 36.004 0.824 5.228 0.731 10.377 1.947 15.381 3.63 4.345 1.463 9.031 3.595 32.572 15.365l39.439 19.719c3.553 1.777 7.057 3.53 10.516 5.261 79.39 39.729 134.31 67.211 193.207 78.262 52.002 9.755 105.361 9.755 157.355 0 58.906-11.051 113.818-38.532 193.212-78.262 3.456-1.731 6.955-3.484 10.513-5.261l39.441-19.719c23.535-11.77 28.22-13.903 32.572-15.364 5.001-1.684 10.146-2.9 15.377-3.632 4.54-0.635 9.685-0.823 36.002-0.823h87.637c75.213 0 90.189 1.346 101.316 5.579 12.945 4.929 24.508 12.937 33.664 23.334 7.876 8.929 14.396 22.483 40.798 92.902l44.356 118.275c24.593 65.579 41.284 110.254 51.575 145.786 10.052 34.703 11.793 53.701 10.539 67.723-3.627 40.826-21.828 78.981-51.277 107.491-10.112 9.792-25.975 20.392-59.273 34.416-34.091 14.357-79.317 29.495-145.758 51.643-45.090 15.029-58.317 19.136-71.083 21.081-15.317 2.331-30.874 2.567-46.251 0.701-12.826-1.557-26.172-5.263-71.689-18.918l-305.826-91.748c-16-4.798-33.050-4.798-49.041 0l-305.83 91.748c-45.52 13.657-58.864 17.361-71.689 18.918zM512.001 448c0 47.128 38.205 85.333 85.333 85.333h85.333c47.128 0 85.333-38.205 85.333-85.333s-38.205-85.333-85.333-85.333h-85.333c-47.129 0-85.333 38.205-85.333 85.333zM1280 448c0 47.128 38.204 85.333 85.333 85.333h85.333c47.13 0 85.333-38.205 85.333-85.333s-38.204-85.333-85.333-85.333h-85.333c-47.13 0-85.333 38.205-85.333 85.333z" />
<glyph unicode="&#xe90f;" glyph-name="graph" horiz-adv-x="1126" d="M963.287 924.488c35.942 30.428 89.211 28.219 122.511-5.081 33.306-33.301 35.517-86.574 5.089-122.521l-471.235-556.666c-24.781-29.271-58.112-46.643-93.020-51.835 1.823-11.325 2.765-22.948 2.765-34.785 0-120.177-97.42-217.6-217.597-217.6h-235c-23.746 0-44.375 16.328-49.831 39.439-5.456 23.107 5.694 46.935 26.933 57.554l10.767 5.386c30.883 15.442 46.279 50.78 36.558 83.912-4.324 14.735-8.004 33.536-5.831 54.236 11.49 109.425 103.958 194.673 216.402 194.673 15.105 0 29.85-1.541 44.088-4.47 6.289 32.527 23.278 63.288 50.729 86.528l556.669 471.229zM194.378 38.4c13.802 34.949 16.34 74.44 5.109 112.717-2.251 7.675-2.514 12.186-2.249 14.715 6.074 57.851 55.083 102.968 114.563 102.968 63.623 0 115.2-51.579 115.2-115.2s-51.577-115.2-115.2-115.2h-117.423zM920.525 754.127l-247.485-292.356-44.872 44.87 292.357 247.486zM549.74 440.253l-76.961-65.152c-21.769-18.427-23.142-51.523-2.974-71.69s53.265-18.796 71.692 2.97l65.152 76.964-56.909 56.909z" />
<glyph unicode="&#xe910;" glyph-name="mar1" d="M438.857 960c-26.93 0-48.762-21.831-48.762-48.762v-48.762h-48.762c-26.93 0-48.762-21.832-48.762-48.762s21.832-48.762 48.762-48.762h48.762v-48.762c0-26.93 21.832-48.762 48.762-48.762s48.762 21.832 48.762 48.762v48.762h48.762c26.931 0 48.762 21.832 48.762 48.762s-21.831 48.762-48.762 48.762h-48.762v48.762c0 26.93-21.831 48.762-48.762 48.762zM817.601 905.053c19.588 6.364 40.687 6.364 60.275 0 14.126-4.59 24.947-12.371 33.47-19.609 7.768-6.591 16.238-15.066 24.942-23.769l29.784-29.787c8.704-8.7 17.179-17.173 23.767-24.936 7.241-8.526 15.019-19.346 19.612-33.473 6.363-19.587 6.363-40.686 0-60.273-4.593-14.127-12.371-24.947-19.612-33.473-6.588-7.763-15.063-16.236-23.767-24.937l-663.258-663.257c-8.701-8.704-17.175-17.179-24.939-23.771-8.526-7.236-19.346-15.019-33.473-19.612-19.587-6.363-40.686-6.363-60.273 0-14.127 4.593-24.947 12.376-33.473 19.612-7.763 6.588-16.236 15.063-24.936 23.767l-29.786 29.784c-8.703 8.704-17.179 17.179-23.77 24.942-7.238 8.524-15.019 19.344-19.609 33.47-6.364 19.588-6.364 40.687 0 60.275 4.59 14.126 12.371 24.947 19.609 33.475 6.591 7.763 15.067 16.238 23.77 24.937l503.472 503.473c0.005 0.006-0.005-0.006 0 0s0.029 0.031 0.039 0.038l159.744 159.746c8.704 8.703 17.174 17.179 24.942 23.77 8.524 7.238 19.344 15.019 33.47 19.609zM633.905 598.469l-467.912-467.914c-10.224-10.22-15.792-15.843-19.483-20.192-0.147-0.171-0.285-0.336-0.415-0.492 0.13-0.156 0.268-0.322 0.415-0.497 3.692-4.345 9.259-9.967 19.483-20.192l27.584-27.585c10.224-10.225 15.846-15.789 20.194-19.48 0.173-0.146 0.337-0.288 0.494-0.414 0.156 0.127 0.321 0.268 0.494 0.414 4.348 3.691 9.969 9.255 20.194 19.48l467.911 467.913-68.959 68.96zM771.823 598.469l124.187 124.185c10.225 10.224 15.794 15.846 19.485 20.194 0.146 0.173 0.283 0.338 0.414 0.494-0.132 0.157-0.268 0.321-0.414 0.494-3.691 4.348-9.26 9.969-19.485 20.194l-27.585 27.584c-10.225 10.224-15.843 15.792-20.192 19.483-0.176 0.147-0.336 0.285-0.492 0.415-0.161-0.13-0.322-0.268-0.497-0.415-4.35-3.692-9.967-9.259-20.192-19.483l-124.187-124.186 68.959-68.96zM195.048 716.19c26.931 0 48.762-21.832 48.762-48.762v-48.762h48.762c26.931 0 48.762-21.832 48.762-48.762s-21.831-48.762-48.762-48.762h-48.762v-48.762c0-26.931-21.831-48.762-48.762-48.762s-48.762 21.831-48.762 48.762v48.762h-48.762c-26.93 0-48.762 21.832-48.762 48.762s21.832 48.762 48.762 48.762h48.762v48.762c0 26.93 21.832 48.762 48.762 48.762zM828.952 277.333c26.931 0 48.762-21.831 48.762-48.762v-48.762h48.762c26.931 0 48.762-21.831 48.762-48.762s-21.831-48.762-48.762-48.762h-48.762v-48.762c0-26.931-21.831-48.762-48.762-48.762s-48.762 21.831-48.762 48.762v48.762h-48.762c-26.931 0-48.762 21.831-48.762 48.762s21.831 48.762 48.762 48.762h48.762v48.762c0 26.931 21.831 48.762 48.762 48.762z" />
<glyph unicode="&#xe911;" glyph-name="tv" horiz-adv-x="1280" d="M266.333 960c-33.738 0.001-62.842 0.002-86.815-1.957-25.302-2.067-50.468-6.631-74.684-18.97-36.127-18.408-65.499-47.78-83.907-83.907-12.339-24.216-16.903-49.382-18.97-74.684-1.959-23.973-1.958-53.078-1.957-86.815v-491.331c-0.001-33.741-0.002-62.848 1.957-86.816 2.067-25.306 6.631-50.47 18.97-74.688 18.408-36.128 47.78-65.498 83.907-83.904 24.216-12.339 49.382-16.902 74.684-18.97 23.973-1.958 53.078-1.958 86.817-1.958h747.329c33.741 0 62.848 0 86.816 1.958 25.306 2.067 50.47 6.63 74.688 18.97 36.128 18.406 65.498 47.776 83.904 83.904 12.339 24.218 16.902 49.382 18.97 74.688 1.958 23.968 1.958 53.075 1.958 86.81v491.338c0 33.737 0 62.842-1.958 86.814-2.067 25.302-6.63 50.468-18.97 74.684-18.406 36.127-47.776 65.499-83.904 83.907-24.218 12.339-49.382 16.903-74.688 18.97-23.968 1.959-53.075 1.958-86.816 1.957h-747.331zM768 64v768h243.2c36.902 0 60.723-0.050 78.861-1.532 17.382-1.42 23.827-3.832 26.995-5.444 12.045-6.136 21.83-15.926 27.968-27.969 1.613-3.165 4.026-9.61 5.446-26.997 1.478-18.134 1.53-41.959 1.53-78.858v-486.4c0-36.902-0.051-60.723-1.53-78.861-1.421-17.382-3.834-23.827-5.446-26.995-6.138-12.045-15.923-21.83-27.968-27.968-3.168-1.613-9.613-4.026-26.995-5.446-18.138-1.478-41.958-1.53-78.861-1.53h-243.2zM640 832v-768h-371.2c-36.899 0-60.725 0.051-78.858 1.53-17.387 1.421-23.832 3.834-26.997 5.446-12.042 6.138-21.833 15.923-27.969 27.968-1.613 3.168-4.024 9.613-5.444 26.995-1.482 18.138-1.532 41.958-1.532 78.861v486.4c0 36.899 0.050 60.725 1.532 78.858 1.42 17.387 3.832 23.832 5.444 26.997 6.136 12.042 15.926 21.833 27.969 27.969 3.165 1.613 9.61 4.024 26.997 5.444 18.133 1.482 41.959 1.532 78.858 1.532h371.2zM832 704c0-35.347 28.653-64 64-64h128c35.347 0 64 28.653 64 64s-28.653 64-64 64h-128c-35.347 0-64-28.654-64-64zM832 512c0-35.347 28.653-64 64-64h128c35.347 0 64 28.653 64 64s-28.653 64-64 64h-128c-35.347 0-64-28.654-64-64zM832 320c0-35.347 28.653-64 64-64h128c35.347 0 64 28.653 64 64s-28.653 64-64 64h-128c-35.347 0-64-28.654-64-64z" />
<glyph unicode="&#xe912;" glyph-name="mobile" horiz-adv-x="717" d="M213.067 960h290.667c26.99 0.001 50.276 0.002 69.45-1.565 20.244-1.654 40.376-5.305 59.75-15.176 28.902-14.726 52.398-38.224 67.123-67.126 9.871-19.373 13.522-39.506 15.176-59.747 1.567-19.178 1.567-42.463 1.567-69.453v-597.863c0-26.993 0-50.278-1.567-69.453-1.654-20.244-5.304-40.376-15.176-59.75-14.725-28.902-38.221-52.398-67.123-67.123-19.374-9.871-39.506-13.522-59.75-15.176-19.174-1.567-42.46-1.567-69.449-1.567h-290.669c-26.99 0-50.273 0-69.451 1.567-20.241 1.654-40.374 5.304-59.747 15.176-28.901 14.725-52.399 38.221-67.126 67.123-9.871 19.374-13.522 39.506-15.176 59.75-1.567 19.174-1.566 42.46-1.565 69.453v597.864c-0.001 26.99-0.002 50.274 1.565 69.452 1.654 20.241 5.305 40.374 15.176 59.747 14.726 28.902 38.224 52.4 67.126 67.126 19.373 9.871 39.506 13.522 59.747 15.176 19.178 1.567 42.462 1.566 69.452 1.565zM151.953 856.375c-13.91-1.136-19.066-3.065-21.598-4.356-9.634-4.909-17.466-12.741-22.375-22.375-1.29-2.532-3.219-7.688-4.356-21.598-1.185-14.506-1.225-33.567-1.225-63.087v-593.92c0-29.522 0.040-48.579 1.225-63.089 1.136-13.906 3.065-19.062 4.356-21.596 4.909-9.636 12.741-17.464 22.375-22.374 2.532-1.29 7.688-3.22 21.598-4.357 14.506-1.183 33.567-1.224 63.087-1.224h286.72c29.522 0 48.579 0.041 63.089 1.224 13.906 1.137 19.062 3.067 21.596 4.357 9.636 4.91 17.464 12.739 22.374 22.374 1.29 2.534 3.22 7.69 4.357 21.596 1.183 14.51 1.224 33.567 1.224 63.089v593.92c0 29.519-0.041 48.58-1.224 63.087-1.137 13.91-3.067 19.066-4.357 21.598-4.91 9.634-12.739 17.466-22.374 22.375-2.534 1.29-7.69 3.219-21.596 4.356-14.51 1.185-33.567 1.225-63.089 1.225h-286.72c-29.519 0-48.58-0.040-63.087-1.225zM256 755.2c0 28.277 22.923 51.2 51.2 51.2h102.4c28.277 0 51.2-22.923 51.2-51.2s-22.923-51.2-51.2-51.2h-102.4c-28.277 0-51.2 22.923-51.2 51.2zM307.2 140.8c0 28.278 22.923 51.2 51.2 51.2h0.512c28.277 0 51.2-22.922 51.2-51.2s-22.923-51.2-51.2-51.2h-0.512c-28.277 0-51.2 22.922-51.2 51.2z" />
<glyph unicode="&#xe913;" glyph-name="desktop" d="M592.287 960h300.227c12.923 0.002 25.508 0.003 36.163-0.868 11.704-0.956 25.518-3.213 39.414-10.293 19.267-9.817 34.934-25.483 44.749-44.75 7.081-13.897 9.339-27.707 10.296-39.412 0.87-10.657 0.865-23.241 0.865-36.163v-761.027c0-12.923 0.005-25.508-0.865-36.163-0.957-11.704-3.215-25.518-10.296-39.414-9.815-19.267-25.482-34.934-44.749-44.749-13.896-7.081-27.709-9.339-39.414-10.296-10.655-0.87-23.24-0.865-36.163-0.865h-175.713c-28.278 0-51.2 22.922-51.2 51.2s22.922 51.2 51.2 51.2h174.080c15.181 0 23.491 0.041 29.46 0.527 0.236 0.020 0.461 0.041 0.676 0.061 0.015 0.21 0.036 0.435 0.056 0.671 0.486 5.97 0.527 14.28 0.527 29.46v757.759c0 15.182-0.041 23.49-0.527 29.459-0.020 0.238-0.041 0.463-0.061 0.675-0.21 0.019-0.435 0.039-0.671 0.058-5.97 0.488-14.28 0.527-29.46 0.527h-296.96c-15.181 0-23.491-0.039-29.46-0.527-0.236-0.019-0.461-0.039-0.671-0.058-0.020-0.212-0.041-0.438-0.061-0.675-0.486-5.969-0.527-14.277-0.527-29.459v-20.48l42.931 0.001c26.993 0.001 50.278 0.002 69.453-1.565 20.244-1.654 40.376-5.305 59.75-15.177 28.902-14.726 52.398-38.224 67.123-67.125 9.871-19.373 13.522-39.506 15.176-59.748 1.567-19.178 1.567-42.463 1.567-69.453v-290.663c0-26.993 0-50.278-1.567-69.453-1.654-20.244-5.304-40.376-15.176-59.75-14.725-28.902-38.221-52.398-67.123-67.123-19.374-9.871-39.506-13.522-59.75-15.176-19.174-1.567-42.46-1.567-69.448-1.567h-145.336v-51.2h102.4c28.278 0 51.2-22.922 51.2-51.2s-22.922-51.2-51.2-51.2h-307.2c-28.277 0-51.2 22.922-51.2 51.2s22.923 51.2 51.2 51.2h102.4v51.2h-145.334c-26.99 0-50.273 0-69.451 1.567-20.241 1.654-40.374 5.304-59.747 15.176-28.902 14.725-52.4 38.221-67.126 67.123-9.871 19.374-13.522 39.506-15.176 59.75-1.567 19.174-1.566 42.46-1.565 69.453v290.664c-0.001 26.99-0.002 50.274 1.565 69.452 1.654 20.242 5.305 40.375 15.176 59.748 14.726 28.901 38.224 52.399 67.126 67.125 19.373 9.871 39.506 13.522 59.747 15.177 19.178 1.567 42.462 1.566 69.452 1.565l247.733-0.001v20.48c0 0.545 0 1.090 0 1.633-0.002 12.922-0.003 25.507 0.868 36.164 0.956 11.704 3.212 25.514 10.293 39.412 9.817 19.268 25.483 34.933 44.749 44.75 13.896 7.081 27.709 9.337 39.414 10.293 10.655 0.871 23.24 0.869 36.163 0.868zM215.040 703.999c-29.519 0-48.58-0.039-63.087-1.225-13.91-1.137-19.066-3.066-21.598-4.356-9.634-4.909-17.466-12.741-22.375-22.375-1.29-2.532-3.219-7.689-4.356-21.598-1.185-14.507-1.225-33.567-1.225-63.087v-286.719c0-29.522 0.040-48.579 1.225-63.089 1.136-13.906 3.065-19.067 4.356-21.596 4.909-9.636 12.741-17.464 22.375-22.374 2.532-1.29 7.688-3.22 21.598-4.357 14.506-1.183 33.567-1.224 63.087-1.224h389.12c29.522 0 48.579 0.041 63.089 1.224 13.906 1.137 19.062 3.067 21.596 4.357 9.636 4.91 17.464 12.739 22.374 22.374 1.29 2.529 3.22 7.69 4.357 21.596 1.183 14.51 1.224 33.567 1.224 63.089v286.719c0 29.52-0.041 48.58-1.224 63.087-1.137 13.909-3.067 19.066-4.357 21.598-4.91 9.634-12.739 17.466-22.374 22.375-2.534 1.29-7.69 3.219-21.596 4.356-14.51 1.185-33.567 1.225-63.089 1.225h-389.12z" />
<glyph unicode="&#xe914;" glyph-name="panels" d="M464.287 960h95.426c12.923 0.002 25.508 0.003 36.163-0.868 11.704-0.956 25.518-3.213 39.414-10.293 19.267-9.817 34.934-25.483 44.749-44.75 7.081-13.897 9.339-27.707 10.296-39.412 0.87-10.658 0.865-23.243 0.865-36.165v-95.425c0-12.922 0.005-25.507-0.865-36.165-0.957-11.704-3.215-25.514-10.296-39.411-9.815-19.268-25.482-34.933-44.749-44.75-13.896-7.081-27.709-9.337-39.414-10.293-9.697-0.792-20.987-0.863-32.676-0.867v-102.4h175.713c12.923 0.002 25.508 0.003 36.163-0.868 11.704-0.956 25.518-3.212 39.414-10.293 19.267-9.818 34.934-25.483 44.749-44.749 7.081-13.896 9.339-27.709 10.296-39.414 0.87-10.655 0.865-23.24 0.865-36.163v-73.313c11.689-0.005 22.979-0.077 32.676-0.865 11.704-0.957 25.518-3.215 39.414-10.296 19.267-9.815 34.934-25.482 44.749-44.749 7.081-13.896 9.339-27.709 10.296-39.414 0.87-10.655 0.865-23.24 0.865-36.163v-95.427c0-12.923 0.005-25.508-0.865-36.163-0.957-11.704-3.215-25.518-10.296-39.414-9.815-19.267-25.482-34.934-44.749-44.749-13.896-7.081-27.709-9.339-39.414-10.296-10.655-0.87-23.24-0.865-36.163-0.865h-95.427c-12.923 0-25.508-0.005-36.163 0.865-11.704 0.957-25.518 3.215-39.414 10.296-19.267 9.815-34.934 25.482-44.749 44.749-7.081 13.896-9.339 27.709-10.296 39.414-0.87 10.655-0.865 23.24-0.865 36.163v95.427c0 12.923-0.005 25.508 0.865 36.163 0.957 11.704 3.215 25.518 10.296 39.414 9.815 19.267 25.482 34.934 44.749 44.749 13.896 7.081 27.709 9.339 39.414 10.296 9.697 0.788 20.987 0.86 32.676 0.865v71.68c0 15.181-0.041 23.491-0.527 29.46-0.020 0.236-0.041 0.461-0.056 0.671-0.215 0.020-0.44 0.041-0.676 0.061-5.97 0.486-14.28 0.527-29.46 0.527h-450.559c-15.182 0-23.49-0.041-29.459-0.527-0.238-0.020-0.463-0.041-0.675-0.061-0.019-0.21-0.039-0.435-0.058-0.671-0.488-5.97-0.527-14.28-0.527-29.46v-71.68c11.689-0.005 22.981-0.077 32.677-0.865 11.704-0.957 25.514-3.215 39.411-10.296 19.268-9.815 34.933-25.482 44.75-44.749 7.081-13.896 9.337-27.709 10.293-39.414 0.871-10.655 0.869-23.24 0.868-36.163v-95.427c0.002-12.923 0.003-25.508-0.868-36.163-0.956-11.704-3.212-25.518-10.293-39.414-9.818-19.267-25.483-34.934-44.75-44.749-13.897-7.081-27.707-9.339-39.411-10.296-10.658-0.87-23.242-0.865-36.164-0.865h-95.428c-12.922 0-25.506-0.005-36.163 0.865-11.704 0.957-25.514 3.215-39.412 10.296-19.268 9.815-34.933 25.482-44.75 44.749-7.081 13.896-9.337 27.709-10.293 39.414-0.871 10.655-0.869 23.24-0.868 36.163v95.427c-0.002 12.923-0.003 25.508 0.868 36.163 0.956 11.704 3.213 25.518 10.293 39.414 9.817 19.267 25.483 34.934 44.75 44.749 13.897 7.081 27.707 9.339 39.412 10.296 9.696 0.788 20.988 0.86 32.677 0.865l-0.001 73.313c-0.002 12.923-0.003 25.508 0.868 36.163 0.956 11.704 3.212 25.518 10.293 39.414 9.818 19.267 25.483 34.932 44.75 44.749 13.897 7.081 27.707 9.337 39.411 10.293 10.658 0.871 23.242 0.869 36.165 0.868 0.544 0 1.088 0 1.633 0h174.079v102.4c-11.689 0.005-22.981 0.075-32.677 0.867-11.704 0.956-25.514 3.212-39.412 10.293-19.268 9.818-34.933 25.483-44.75 44.75-7.081 13.897-9.337 27.707-10.293 39.411-0.871 10.658-0.869 23.242-0.868 36.165 0 0.544 0.001 1.088 0.001 1.633v92.16c0 0.545-0.001 1.090-0.001 1.633-0.002 12.922-0.003 25.507 0.868 36.164 0.956 11.704 3.212 25.514 10.293 39.412 9.818 19.268 25.483 34.933 44.75 44.75 13.897 7.081 27.707 9.337 39.412 10.293 10.657 0.871 23.242 0.869 36.164 0.868zM558.080 703.999c15.181 0 23.491 0.040 29.46 0.528 0.236 0.019 0.461 0.039 0.676 0.058 0.015 0.212 0.036 0.438 0.056 0.675 0.486 5.969 0.527 14.277 0.527 29.458v92.16c0 15.182-0.041 23.49-0.527 29.459-0.020 0.238-0.041 0.463-0.056 0.675-0.215 0.019-0.44 0.039-0.676 0.058-5.97 0.488-14.28 0.527-29.46 0.527h-92.159c-15.182 0-23.49-0.039-29.459-0.527-0.238-0.019-0.463-0.039-0.675-0.058-0.019-0.212-0.039-0.438-0.058-0.675-0.488-5.969-0.528-14.277-0.528-29.459v-92.16c0-15.182 0.040-23.49 0.528-29.458 0.019-0.238 0.039-0.463 0.058-0.675 0.212-0.019 0.438-0.039 0.675-0.058 5.969-0.488 14.277-0.528 29.459-0.528h92.159zM158.721 192c-15.182 0-23.49-0.041-29.459-0.527-0.238-0.020-0.463-0.041-0.675-0.061-0.019-0.21-0.039-0.435-0.058-0.671-0.488-5.97-0.527-14.28-0.527-29.46v-92.16c0-15.181 0.039-23.491 0.527-29.46 0.019-0.236 0.039-0.461 0.058-0.671 0.212-0.020 0.438-0.041 0.675-0.061 5.969-0.486 14.277-0.527 29.459-0.527h92.16c15.182 0 23.49 0.041 29.458 0.527 0.238 0.020 0.463 0.041 0.675 0.061 0.019 0.21 0.039 0.435 0.058 0.671 0.488 5.97 0.528 14.28 0.528 29.46v92.16c0 15.181-0.040 23.491-0.528 29.46-0.019 0.236-0.039 0.461-0.058 0.671-0.212 0.020-0.438 0.041-0.675 0.061-5.969 0.486-14.277 0.527-29.458 0.527h-92.16zM773.12 192c-15.181 0-23.491-0.041-29.46-0.527-0.236-0.020-0.461-0.041-0.671-0.061-0.020-0.21-0.041-0.435-0.061-0.671-0.486-5.97-0.527-14.28-0.527-29.46v-92.16c0-15.181 0.041-23.491 0.527-29.46 0.020-0.236 0.041-0.461 0.061-0.671 0.21-0.020 0.435-0.041 0.671-0.061 5.97-0.486 14.28-0.527 29.46-0.527h92.16c15.181 0 23.491 0.041 29.46 0.527 0.236 0.020 0.461 0.041 0.676 0.061 0.015 0.21 0.036 0.435 0.056 0.671 0.486 5.97 0.527 14.28 0.527 29.46v92.16c0 15.181-0.041 23.491-0.527 29.46-0.020 0.236-0.041 0.461-0.056 0.671-0.215 0.020-0.44 0.041-0.676 0.061-5.97 0.486-14.28 0.527-29.46 0.527h-92.16z" />
<glyph unicode="&#xe915;" glyph-name="star" horiz-adv-x="1161" d="M238.933 954.311c28.277 0 51.2-22.923 51.2-51.2v-62.578h62.577c28.279 0 51.2-22.923 51.2-51.2s-22.921-51.2-51.2-51.2h-62.577v-62.578c0-28.277-22.923-51.2-51.2-51.2s-51.2 22.923-51.2 51.2v62.578h-62.578c-28.277 0-51.2 22.923-51.2 51.2s22.923 51.2 51.2 51.2h62.578v62.578c0 28.277 22.923 51.2 51.2 51.2zM637.157 954.311c21.026 0 39.916-12.855 47.63-32.415l99.717-252.835c11.629-29.487 14.572-35.972 18.214-41.059 3.99-5.571 8.868-10.451 14.442-14.438 5.086-3.645 11.571-6.588 41.059-18.217l252.832-99.717c19.562-7.714 32.416-26.604 32.416-47.63s-12.855-39.916-32.416-47.63l-252.832-99.717c-29.488-11.629-35.973-14.572-41.059-18.217-5.574-3.99-10.452-8.868-14.442-14.438-3.642-5.086-6.584-11.571-18.214-41.059l-99.717-252.836c-7.714-19.558-26.604-32.413-47.63-32.413s-39.916 12.855-47.63 32.413l-99.717 252.836c-11.629 29.488-14.575 35.973-18.217 41.059-3.99 5.571-8.868 10.448-14.438 14.438-5.086 3.645-11.571 6.588-41.059 18.217l-252.836 99.717c-19.56 7.714-32.415 26.604-32.415 47.63s12.855 39.916 32.415 47.63l252.836 99.717c29.488 11.629 35.973 14.572 41.059 18.217 5.571 3.987 10.448 8.866 14.438 14.438 3.642 5.087 6.588 11.572 18.217 41.059l99.717 252.835c7.714 19.56 26.604 32.415 47.63 32.415zM637.157 763.56l-52.087-132.069c-0.587-1.484-1.164-2.954-1.737-4.409-8.963-22.779-16.524-42.002-28.488-58.704-10.52-14.688-23.378-27.549-38.065-38.069-16.705-11.96-35.925-19.524-58.706-28.484-1.454-0.573-2.925-1.154-4.407-1.737l-132.071-52.087 132.071-52.087c1.481-0.584 2.953-1.164 4.407-1.737 22.781-8.96 42.001-16.524 58.706-28.488 14.688-10.516 27.546-23.378 38.065-38.065 11.964-16.701 19.524-35.925 28.488-58.703 0.573-1.457 1.15-2.925 1.737-4.41l52.087-132.069 52.087 132.069c0.584 1.485 1.161 2.953 1.734 4.407 8.963 22.781 16.527 42.001 28.488 58.706 10.52 14.688 23.381 27.549 38.069 38.065 16.701 11.964 35.922 19.528 58.703 28.488 1.457 0.573 2.925 1.154 4.41 1.737l132.069 52.087-132.069 52.087c-1.485 0.584-2.956 1.164-4.41 1.737-22.781 8.96-42.001 16.524-58.703 28.484-14.688 10.52-27.549 23.381-38.069 38.069-11.96 16.701-19.524 35.925-28.488 58.705-0.573 1.455-1.15 2.924-1.734 4.408l-52.087 132.069zM182.044 271.643c28.277 0 51.2-22.921 51.2-51.2v-62.577h62.578c28.277 0 51.201-22.924 51.201-51.2s-22.924-51.2-51.201-51.2h-62.578v-62.577c0-28.279-22.923-51.2-51.2-51.2s-51.2 22.921-51.2 51.2v62.577h-62.578c-28.277 0-51.2 22.924-51.2 51.2s22.923 51.2 51.2 51.2h62.578v62.577c0 28.279 22.923 51.2 51.2 51.2z" />
<glyph unicode="&#xe916;" glyph-name="circle" d="M512 854.588c-224.552 0-406.588-182.036-406.588-406.588 0-224.551 182.036-406.588 406.588-406.588 224.551 0 406.588 182.037 406.588 406.588 0 24.949 20.227 45.176 45.176 45.176s45.176-20.227 45.176-45.176c0-274.453-222.488-496.941-496.941-496.941s-496.941 222.488-496.941 496.941c0 274.453 222.488 496.941 496.941 496.941 24.949 0 45.176-20.226 45.176-45.176s-20.227-45.176-45.176-45.176zM798.497 926.201c13.631-4.433 24.353-15.075 28.886-28.676l35.948-107.84 107.839-35.947c13.601-4.534 24.242-15.254 28.675-28.887s2.132-28.563-6.201-40.229l-107.722-150.814c-9.457-13.24-25.302-20.372-41.481-18.67l-177.854 18.679-123.296-118.398c-17.995-17.282-46.595-16.7-63.877 1.295s-16.7 46.595 1.295 63.877l122.865 117.983-14.875 173.073c-1.367 15.905 5.762 31.351 18.751 40.63l150.814 107.724c11.668 8.333 26.597 10.634 40.231 6.2zM692.251 621.972l135.448-14.225 56.871 79.618-71.24 23.747c-13.49 4.497-24.076 15.082-28.573 28.572l-23.748 71.241-80.083-57.202 11.324-131.752zM512 653.803c-113.661 0-205.803-92.142-205.803-205.803s92.142-205.803 205.803-205.803c113.661 0 205.803 92.142 205.803 205.803 0 24.949 20.227 45.176 45.176 45.176 24.952 0 45.176-20.227 45.176-45.176 0-163.563-132.593-296.156-296.156-296.156s-296.157 132.593-296.157 296.156c0 163.563 132.594 296.157 296.157 296.157 24.949 0 45.176-20.226 45.176-45.176s-20.227-45.177-45.176-45.177z" />
<glyph unicode="&#xe917;" glyph-name="bag" d="M266.039 749.176c0 108.118 87.647 195.765 195.764 195.765h100.394c108.116 0 195.765-87.647 195.765-195.765v-5.072c25.913-0.13 48.254-0.581 67.445-2.149 27.907-2.28 53.109-7.143 76.643-19.135 36.837-18.769 66.786-48.717 85.552-85.552 13.445-26.389 17.983-55.025 19.881-87.329 1.458-24.796 1.458-54.754 1.458-90.618v-224.036c0-40.562 0-73.734-2.202-100.692-2.28-27.907-7.144-53.109-19.137-76.643-18.766-36.837-48.715-66.786-85.552-85.552-23.534-11.993-48.736-16.857-76.643-19.137-26.958-2.202-60.13-2.202-100.692-2.202h-425.429c-40.562 0-73.735 0-100.694 2.202-27.905 2.28-53.107 7.144-76.643 19.137-36.835 18.766-66.783 48.715-85.552 85.552-11.992 23.534-16.856 48.736-19.135 76.643-2.203 26.958-2.202 60.13-2.202 100.692v224.036c0 35.867 0 65.822 1.457 90.618 1.898 32.304 6.436 60.94 19.881 87.329 18.769 36.835 48.717 66.783 85.552 85.552 23.536 11.992 48.739 16.855 76.643 19.135 19.192 1.568 41.533 2.020 67.448 2.149v5.072zM356.391 744.157h311.218v5.020c0 58.217-47.194 105.412-105.412 105.412h-100.394c-58.217 0-105.412-47.194-105.412-105.412v-5.020zM205.949 651.902c-22.317-1.822-34.306-5.168-42.982-9.586-19.834-10.107-35.96-26.232-46.066-46.068-3.411-6.695-6.143-15.267-8.057-28.889l164.596-131.677c25.873-20.7 34.052-26.967 42.641-31.355 8.457-4.322 17.462-7.481 26.766-9.391 9.448-1.94 19.751-2.15 52.887-2.15h232.532c33.135 0 43.439 0.211 52.887 2.15 9.303 1.909 18.309 5.069 26.766 9.391 8.59 4.388 16.766 10.656 42.641 31.355l164.596 131.677c-1.912 13.622-4.644 22.194-8.056 28.889-10.104 19.835-26.232 35.96-46.065 46.068-8.677 4.418-20.667 7.764-42.984 9.586-22.844 1.867-52.311 1.9-95.226 1.9h-421.647c-42.914 0-72.383-0.033-95.227-1.9zM918.588 454.397l-111.586-89.269c-1.072-0.858-2.129-1.705-3.174-2.542-21.393-17.125-37.024-29.639-54.802-38.722-15.709-8.023-32.431-13.89-49.709-17.435-19.558-4.015-39.578-4.009-66.982-4-1.337 0.003-2.693 0.003-4.069 0.003h-232.532c-1.376 0-2.732 0-4.069-0.003-27.404-0.009-47.423-0.015-66.982 4-17.278 3.545-34 9.412-49.708 17.435-17.781 9.083-33.41 21.597-54.803 38.722-1.044 0.837-2.103 1.684-3.176 2.542l-111.585 89.269v-217.221c0-42.915 0.035-72.382 1.902-95.226 1.823-22.317 5.167-34.307 9.588-42.984 10.106-19.832 26.232-35.96 46.066-46.065 8.676-4.421 20.665-7.764 42.982-9.589 22.845-1.864 52.313-1.9 95.227-1.9h421.647c42.915 0 72.382 0.036 95.226 1.9 22.317 1.825 34.307 5.168 42.984 9.589 19.832 10.104 35.96 26.232 46.065 46.065 4.421 8.677 7.764 20.667 9.589 42.984 1.864 22.844 1.9 52.311 1.9 95.226v217.221z" />
<glyph unicode="&#xe918;" glyph-name="code" horiz-adv-x="1161" d="M706.461 952.783c27.433-6.858 44.114-34.656 37.253-62.089l-227.553-910.221c-6.857-27.433-34.656-44.114-62.089-37.253-27.433 6.857-44.114 34.656-37.253 62.089l227.553 910.221c6.857 27.433 34.656 44.112 62.089 37.254zM333.444 710.284c19.181-20.778 17.883-53.17-2.894-72.35l-189.822-175.219 192.613-207.432c19.242-20.719 18.041-53.115-2.68-72.359-20.721-19.241-53.117-18.039-72.358 2.683l-227.556 245.060c-9.258 9.967-14.167 23.214-13.643 36.809s6.437 26.423 16.434 35.649l227.556 210.052c20.778 19.18 53.17 17.884 72.35-2.894zM827.088 710.284c19.18 20.778 51.572 22.074 72.352 2.894l227.553-210.052c9.998-9.226 15.91-22.054 16.435-35.649 0.522-13.595-4.386-26.842-13.643-36.809l-227.557-245.060c-19.241-20.722-51.637-21.924-72.356-2.683-20.722 19.244-21.924 51.64-2.683 72.359l192.614 207.432-189.822 175.219c-20.777 19.18-22.074 51.572-2.895 72.35z" />
<glyph unicode="&#xe919;" glyph-name="shavron-down" horiz-adv-x="1536" d="M677.49 37.49c49.988-49.987 131.032-49.987 181.020 0l639.999 640c49.984 49.988 49.984 131.032 0 181.020s-131.034 49.987-181.018 0l-549.491-549.491-549.49 549.491c-49.988 49.987-131.033 49.987-181.020 0s-49.987-131.032 0-181.020l640-640z" />
<glyph unicode="&#xe91a;" glyph-name="lightsun" d="M512 883.2c28.277 0 51.2-22.923 51.2-51.2v-42.667c0-28.277-22.923-51.2-51.2-51.2s-51.2 22.923-51.2 51.2v42.667c0 28.277 22.923 51.2 51.2 51.2zM198.462 761.538c19.996 19.995 52.413 19.995 72.408 0l34.736-34.736c19.995-19.995 19.995-52.412 0-72.408-19.996-19.995-52.413-19.995-72.408 0l-34.736 34.736c-19.995 19.995-19.995 52.412 0 72.408zM825.535 761.538c19.995-19.995 19.996-52.412 0.001-72.407l-34.734-34.736c-19.995-19.995-52.412-19.996-72.408-0.001s-19.996 52.412-0.001 72.408l34.734 34.735c19.995 19.996 52.412 19.996 72.408 0.001zM512 567.467c-65.979 0-119.467-53.488-119.467-119.467s53.488-119.467 119.467-119.467c65.979 0 119.467 53.488 119.467 119.467s-53.488 119.467-119.467 119.467zM290.133 448c0 122.534 99.333 221.867 221.867 221.867s221.867-99.333 221.867-221.867c0-122.534-99.333-221.867-221.867-221.867s-221.867 99.333-221.867 221.867zM76.8 448c0 28.277 22.923 51.2 51.2 51.2h42.667c28.277 0 51.2-22.923 51.2-51.2s-22.923-51.2-51.2-51.2h-42.667c-28.277 0-51.2 22.923-51.2 51.2zM802.133 448c0 28.277 22.923 51.2 51.2 51.2h42.667c28.277 0 51.2-22.923 51.2-51.2s-22.923-51.2-51.2-51.2h-42.667c-28.277 0-51.2 22.923-51.2 51.2zM305.697 241.34c19.944-20.045 19.864-52.464-0.181-72.408l-34.735-34.562c-20.045-19.945-52.464-19.865-72.408 0.18s-19.864 52.463 0.181 72.408l34.735 34.562c20.045 19.945 52.463 19.865 72.408-0.18zM718.304 241.34c19.945 20.045 52.363 20.125 72.407 0.18l34.735-34.563c20.044-19.945 20.125-52.363 0.179-72.407s-52.363-20.125-72.407-0.18l-34.735 34.563c-20.044 19.944-20.125 52.363-0.179 72.407zM512 157.867c28.277 0 51.2-22.923 51.2-51.2v-42.667c0-28.277-22.923-51.2-51.2-51.2s-51.2 22.923-51.2 51.2v42.667c0 28.277 22.923 51.2 51.2 51.2z" />
<glyph unicode="&#xe91b;" glyph-name="darkmoon" d="M418.636 854.159c14.507-14.479 18.982-36.216 11.372-55.248-15.257-38.157-23.827-80.389-23.827-124.072 0-183.801 149-332.8 332.8-332.8 43.782 0 85.714 8.667 124.118 24.101 19.026 7.646 40.779 3.203 55.283-11.292s18.962-36.243 11.33-55.276c-64.203-160.077-220.852-273.271-404.063-273.271-240.354 0-435.2 194.846-435.2 435.2 0 183.077 113.028 339.63 272.92 403.922 19.017 7.647 40.761 3.215 55.269-11.265zM305.271 710.901c-68.978-61.004-112.424-150.158-112.424-249.398 0-183.801 148.999-332.8 332.8-332.8 99.248 0 188.409 43.453 249.413 112.44-11.899-0.994-23.933-1.503-36.080-1.503-240.354 0-435.2 194.846-435.2 435.2 0 12.116 0.505 24.147 1.491 36.061z" />
</font>
</defs>
</svg>
